<acronym id="ucqge"></acronym>
<acronym id="ucqge"></acronym>
<rt id="ucqge"></rt>
<tr id="ucqge"></tr>
<rt id="ucqge"></rt><acronym id="ucqge"><small id="ucqge"></small></acronym>
<rt id="ucqge"><optgroup id="ucqge"></optgroup></rt>
<rt id="ucqge"><optgroup id="ucqge"></optgroup></rt>
<rt id="ucqge"><optgroup id="ucqge"></optgroup></rt>
<rt id="ucqge"><xmp id="ucqge">
<rt id="ucqge"></rt>

古哥论坛

 找回密码
 注册(分享大片)
查看: 451|回复: 11
打印 上一主题 下一主题

[720P] [奎迪2/奎迪:英雄再起]Creed.II.2018.720p.BluRay.x264.DTS-HDC 6.09GB

[复制链接]
跳转到指定楼层
1#
发表于 2019-2-20 22:36:44 | 只看该作者 回帖奖励 |倒序浏览 |阅读模式
4K天堂

译  名 奎迪:英雄再起 / Creed 2 / Creed: Revenge / 克里德2 / 奎迪2 / 洛奇8 / 金牌拳手2 / 金牌拳手:父仇(台)
片  名 Creed II
年  代 2018
产  地 美国
类  别 剧情 / 运动
语  言 英语
上映日期 2018-11-21(美国) / 2019-01-04(中国大陆)
IMDb评分 7.5/10 from 41072 users
IMDb链?#21360;?a href="http://www.imdb.com/title/tt6343314" target="_blank">http://www.imdb.com/title/tt6343314
豆瓣评分 7.3/10 from 9206 users
蓝光高清   http://www.4ktt.com
片  长 130分钟
导  演 小斯蒂芬・卡普尔 Steven Caple Jr.
编  剧 乔・霍代里・库克 Cheo Hodari Coker / 瑞恩・库格勒 Ryan Coogler / 萨沙・潘 Sascha Penn / 西尔维斯特・史泰龙 Sylvester Stallone / 朱埃尔・泰勒 Juel Taylor
主  演 迈克尔・B・乔丹 Michael B. Jordan
      西尔维斯特・史泰龙 Sylvester Stallone
      泰莎・汤普森 Tessa Thompson
      杜夫・龙格尔 Dolph Lundgren
      弗罗里安・穆特鲁 Florian Munteanu
      布里吉特・尼尔森 Brigitte Nielsen
      罗素・霍恩?#36129;?Russell Hornsby
      伍德・哈里斯 Wood Harris
      米洛・文?#22530;?#21033;亚 Milo Ventimiglia
      ?#35780;?#35199;亚・拉?#36141;?#24503; Phylicia Rashad
      迈克尔・巴佛 Michael Buffer
      安德烈・?#20540;?Andre Ward
      迈尔斯・哈姆帕斯 Myles Humphus
      伊沃・南迪 Ivo Nandi
      克里斯托弗・曼恩 Christopher Mann



简  介
  《奎迪:英雄再起》讲述拳王奎迪迎战“父仇”对手,遭遇惨败跌入人生低谷,在教练洛奇和家人的帮助下,克服心理障碍重新振作的故事。


  1. Video
  2. ID : 1
  3. Format : AVC
  4. Format/Info : Advanced Video Codec
  5. Format profile : [email protected]
  6. Format settings : CABAC / 12 Ref Frames
  7. Format settings, CABAC : Yes
  8. Format settings, ReFrames : 12 frames
  9. Codec ID : V_MPEG4/ISO/AVC
  10. Duration : 2 h 10 min
  11. Bit rate : 5 200 kb/s
  12. Width : 1 280 pixels
  13. Height : 536 pixels
  14. Display aspect ratio : 2.40:1
  15. Frame rate mode : Constant
  16. Frame rate : 23.976 (24000/1001) FPS
  17. Color space : YUV
  18. Chroma subsampling : 4:2:0
  19. Bit depth : 8 bits
  20. Scan type : Progressive
  21. Bits/(Pixel*Frame) : 0.316
  22. Stream size : 4.72 GiB (77%)
  23. Writing library : x264 core 148 r2665kMod a01e339
  24. Encoding settings : cabac=1 / ref=12 / deblock=1:-3:-3 / analyse=0x3:0x133 / me=umh / subme=11 / psy=1 / fade_compensate=0.00 / psy_rd=1.05:0.00 / mixed_ref=1 / me_range=32 / chroma_me=1 / trellis=2 / 8x8dct=1 / cqm=0 / deadzone=21,11 / fast_pskip=0 / chroma_qp_offset=-2 / threads=17 / lookahead_threads=2 / sliced_threads=0 / nr=0 / decimate=0 / interlaced=0 / bluray_compat=0 / constrained_intra=0 / fgo=0 / bframes=8 / b_pyramid=2 / b_adapt=2 / b_bias=0 / direct=3 / weightb=1 / open_gop=0 / weightp=2 / keyint=240 / keyint_min=24 / scenecut=40 / intra_refresh=0 / rc=2pass / mbtree=0 / bitrate=5200 / ratetol=1.0 / qcomp=0.70 / qpmin=0 / qpmax=69 / qpstep=4 / cplxblur=20.0 / qblur=0.5 / ip_ratio=1.20 / pb_ratio=1.20 / aq=3:0.85
  25. Default : Yes
  26. Forced : No

  27. Audio
  28. ID : 2
  29. Format : DTS
  30. Format/Info : Digital Theater Systems
  31. Codec ID : A_DTS
  32. Duration : 2 h 10 min
  33. Bit rate mode : Constant
  34. Bit rate : 1 509 kb/s
  35. Channel(s) : 6 channels
  36. Channel layout : C L R Ls Rs LFE
  37. Sampling rate : 48.0 kHz
  38. Frame rate : 93.750 FPS (512 SPF)
  39. Bit depth : 24 bits
  40. Compression mode : Lossy
  41. Stream size : 1.37 GiB (22%)
  42. Language : English
  43. Default : Yes
  44. Forced : No

  45. Text #1
  46. ID : 3
  47. Format : UTF-8
  48. Codec ID : S_TEXT/UTF8
  49. Codec ID/Info : UTF-8 Plain Text
  50. Duration : 2 h 5 min
  51. Bit rate : 48 b/s
  52. Count of elements : 1529
  53. Stream size : 44.5 KiB (0%)
  54. Language : English
  55. Default : Yes
  56. Forced : No

  57. Text #2
  58. ID : 4
  59. Format : UTF-8
  60. Codec ID : S_TEXT/UTF8
  61. Codec ID/Info : UTF-8 Plain Text
  62. Duration : 2 h 9 min
  63. Bit rate : 54 b/s
  64. Count of elements : 1775
  65. Stream size : 51.9 KiB (0%)
  66. Title : SDH
  67. Language : English
  68. Default : No
  69. Forced : No
复制代码





Creed.II.2018.720p.BluRay.x264.DTS-HDC.torrent (31.05 KB, 下载次数: 109)


提示:如迅雷下载提示"任务出错"、"因版权无法下载",请更换【迅雷5】
古哥影视论坛www.bpdm.tw 高清电影,蓝光电影,最新电影,电影天堂,影视帝国,人人影视
2#
发表于 2019-2-20 22:46:40 | 只看该作者
西尔维斯特・史泰龙 好久没看见他了
古哥影视论坛www.bpdm.tw 高清电影,蓝光电影,最新电影,电影天堂,影视帝国,人人影视
回复 支持 反对

使用道具 举报

3#
发表于 2019-2-21 09:09:43 | 只看该作者
?#34892;?#27004;主无私分享
古哥影视论坛www.bpdm.tw 高清电影,蓝光电影,最新电影,电影天堂,影视帝国,人人影视
回复 支持 反对

使用道具 举报

4#
发表于 2019-2-21 09:15:59 | 只看该作者
?#34892;?#20998;享,支持支持
古哥影视论坛www.bpdm.tw 高清电影,蓝光电影,最新电影,电影天堂,影视帝国,人人影视
回复 支持 反对

使用道具 举报

5#
发表于 2019-2-21 10:40:33 | 只看该作者
?#34892;?#32769;大分享!!!
古哥影视论坛www.bpdm.tw 高清电影,蓝光电影,最新电影,电影天堂,影视帝国,人人影视
回复 支持 反对

使用道具 举报

6#
发表于 2019-2-21 19:20:31 | 只看该作者
?#34892;?#27004;主分享!永远支持古哥影视
古哥影视论坛www.bpdm.tw 高清电影,蓝光电影,最新电影,电影天堂,影视帝国,人人影视
回复 支持 反对

使用道具 举报

7#
发表于 2019-2-21 22:01:50 | 只看该作者
?#34892;?#27004;主分享
古哥影视论坛www.bpdm.tw 高清电影,蓝光电影,最新电影,电影天堂,影视帝国,人人影视
回复 支持 反对

使用道具 举报

9#
发表于 2019-3-1 19:33:13 | 只看该作者
史泰龙,谢谢分享啊
古哥影视论坛www.bpdm.tw 高清电影,蓝光电影,最新电影,电影天堂,影视帝国,人人影视
回复 支持 反对

使用道具 举报

10#
发表于 2019-3-2 22:40:33 | 只看该作者
不错萨 好片
古哥影视论坛www.bpdm.tw 高清电影,蓝光电影,最新电影,电影天堂,影视帝国,人人影视
回复 支持 反对

使用道具 举报

懒得打字嘛,点击右侧快捷回复->
您需要登录后才可以回帖 登录 | 注册(分享大片)

本版积分规则

影视帝国免责声明
本站提供网上学习交流和自由讨论使用,所有资源均来自互联网公开渠道,发布和个?#25628;?#35770;并不代表本站立场,本站不负任何责任.
如发现有侵权行为,请与我们联系.我们将立刻从网站上删除,并向所有持版权者致最深歉意.
影视帝国论坛已经安全运行

QQ|小黑屋|?#21482;?#29256;|Archiver|古哥论坛 ( 苏ICP备12074540号 )

GMT+8, 2019-3-24 01:35 , Processed in 0.238108 second(s), 21 queries , Gzip On.

Powered by Discuz! X3.2

© 2001-2013 Comsenz Inc.

快速回复 返回顶部 返回列表
十一选五前三技巧