<acronym id="ucqge"></acronym>
<acronym id="ucqge"></acronym>
<rt id="ucqge"></rt>
<tr id="ucqge"></tr>
<rt id="ucqge"></rt><acronym id="ucqge"><small id="ucqge"></small></acronym>
<rt id="ucqge"><optgroup id="ucqge"></optgroup></rt>
<rt id="ucqge"><optgroup id="ucqge"></optgroup></rt>
<rt id="ucqge"><optgroup id="ucqge"></optgroup></rt>
<rt id="ucqge"><xmp id="ucqge">
<rt id="ucqge"></rt>

古哥论坛

 找回密码
 注册(分享大片)
查看: 1112|回复: 25
打印 上一主题 下一主题

[1080P] [奎迪2]Creed.II.2018.1080p.BluRay.x264.DTS-HDC 13.4GB

[复制链接]
跳转到指定楼层
1#
发表于 2019-2-20 22:39:19 | 只看该作者 回帖奖励 |倒序浏览 |阅读模式
4K天堂

译  名 奎迪:英雄再起 / Creed 2 / Creed: Revenge / 克里德2 / 奎迪2 / 洛奇8 / 金牌拳手2 / 金牌拳手:父仇(台)
片  名 Creed II
年  代 2018
产  地 美国
类  别 剧情 / 运动
语  言 英语
上映日期 2018-11-21(美国) / 2019-01-04(中国大陆)
IMDb评分 7.5/10 from 41072 users
IMDb链?#21360;?a href="http://www.imdb.com/title/tt6343314" target="_blank">http://www.imdb.com/title/tt6343314
豆瓣评分 7.3/10 from 9206 users
蓝光高清   http://www.4ktt.com
片  长 130分钟
导  演 小斯蒂芬・卡普尔 Steven Caple Jr.
编  剧 乔・霍代里・库克 Cheo Hodari Coker / 瑞恩・库格勒 Ryan Coogler / 萨沙・潘 Sascha Penn / 西尔维斯特・史泰龙 Sylvester Stallone / 朱埃尔・泰勒 Juel Taylor
主  演 迈克尔・B・乔丹 Michael B. Jordan
      西尔维斯特・史泰龙 Sylvester Stallone
      泰莎・汤普森 Tessa Thompson
      杜夫・龙格尔 Dolph Lundgren
      弗罗里安・穆特鲁 Florian Munteanu
      布里吉特・尼尔森 Brigitte Nielsen
      罗素・霍恩?#36129;?Russell Hornsby
      伍德・哈里斯 Wood Harris
      米洛・文?#22530;?#21033;亚 Milo Ventimiglia
      ?#35780;?#35199;亚・拉?#36141;?#24503; Phylicia Rashad
      迈克尔・巴佛 Michael Buffer
      安德烈・?#20540;?Andre Ward
      迈尔斯・哈姆帕斯 Myles Humphus
      伊沃・南迪 Ivo Nandi
      克里斯托弗・曼恩 Christopher Mann



简  介
  《奎迪:英雄再起》讲述拳王奎迪迎战“父仇”对手,遭遇惨败跌入人生低谷,在教练洛奇和家人的帮助下,克服心理障碍重新振作的故事。

  1. Video
  2. ID : 1
  3. Format : AVC
  4. Format/Info : Advanced Video Codec
  5. Format profile : [email protected]
  6. Format settings : CABAC / 5 Ref Frames
  7. Format settings, CABAC : Yes
  8. Format settings, ReFrames : 5 frames
  9. Codec ID : V_MPEG4/ISO/AVC
  10. Duration : 2 h 10 min
  11. Bit rate : 13.3 Mb/s
  12. Width : 1 920 pixels
  13. Height : 804 pixels
  14. Display aspect ratio : 2.40:1
  15. Frame rate mode : Constant
  16. Frame rate : 23.976 (24000/1001) FPS
  17. Color space : YUV
  18. Chroma subsampling : 4:2:0
  19. Bit depth : 8 bits
  20. Scan type : Progressive
  21. Bits/(Pixel*Frame) : 0.359
  22. Stream size : 12.1 GiB (90%)
  23. Title : Creed.II.2018.1080p.BluRay.x264.DTS-HDC
  24. Writing library : x264 core 148 r2665kMod a01e339
  25. Encoding settings : cabac=1 / ref=5 / deblock=1:-3:-3 / analyse=0x3:0x133 / me=umh / subme=11 / psy=1 / fade_compensate=0.00 / psy_rd=0.85:0.00 / mixed_ref=1 / me_range=48 / chroma_me=1 / trellis=2 / 8x8dct=1 / cqm=0 / deadzone=21,11 / fast_pskip=0 / chroma_qp_offset=-2 / threads=24 / lookahead_threads=4 / sliced_threads=0 / nr=0 / decimate=0 / interlaced=0 / bluray_compat=0 / constrained_intra=0 / fgo=0 / bframes=8 / b_pyramid=2 / b_adapt=2 / b_bias=0 / direct=3 / weightb=1 / open_gop=0 / weightp=2 / keyint=240 / keyint_min=24 / scenecut=40 / intra_refresh=0 / rc=2pass / mbtree=0 / bitrate=13300 / ratetol=1.0 / qcomp=0.70 / qpmin=0 / qpmax=69 / qpstep=4 / cplxblur=20.0 / qblur=0.5 / ip_ratio=1.20 / pb_ratio=1.20 / aq=3:0.80
  26. Default : Yes
  27. Forced : No

  28. Audio
  29. ID : 2
  30. Format : DTS
  31. Format/Info : Digital Theater Systems
  32. Codec ID : A_DTS
  33. Duration : 2 h 10 min
  34. Bit rate mode : Constant
  35. Bit rate : 1 509 kb/s
  36. Channel(s) : 6 channels
  37. Channel layout : C L R Ls Rs LFE
  38. Sampling rate : 48.0 kHz
  39. Frame rate : 93.750 FPS (512 SPF)
  40. Bit depth : 24 bits
  41. Compression mode : Lossy
  42. Stream size : 1.37 GiB (10%)
  43. Title : Creed.II.2018.1080p.BluRay.x264.DTS-HDC
  44. Language : English
  45. Default : Yes
  46. Forced : No

  47. Text #1
  48. ID : 3
  49. Format : UTF-8
  50. Codec ID : S_TEXT/UTF8
  51. Codec ID/Info : UTF-8 Plain Text
  52. Duration : 2 h 5 min
  53. Bit rate : 48 b/s
  54. Count of elements : 1529
  55. Stream size : 44.5 KiB (0%)
  56. Language : English
  57. Default : Yes
  58. Forced : No

  59. Text #2
  60. ID : 4
  61. Format : UTF-8
  62. Codec ID : S_TEXT/UTF8
  63. Codec ID/Info : UTF-8 Plain Text
  64. Duration : 2 h 9 min
  65. Bit rate : 54 b/s
  66. Count of elements : 1775
  67. Stream size : 51.9 KiB (0%)
  68. Title : SDH
  69. Language : English
  70. Default : No
  71. Forced : No
复制代码





Creed.II.2018.1080p.BluRay.x264.DTS-HDC.torrent (67.73 KB, 下载次数: 285)


提示:如迅雷下载提示"任务出错"、"因版权无法下载",请更换【迅雷5】,提取码: ai7u
古哥影视论坛www.bpdm.tw 高清电影,蓝光电影,最新电影,电影天堂,影视帝国,人人影视
点我免费领影视币
2#
发表于 2019-2-21 07:40:35 | 只看该作者
谢谢楼主分享
古哥影视论坛www.bpdm.tw 高清电影,蓝光电影,最新电影,电影天堂,影视帝国,人人影视
点我免费领影视币
回复 支持 反对

使用道具 举报

3#
发表于 2019-2-21 09:00:33 | 只看该作者
感谢楼主分享影片
古哥影视论坛www.bpdm.tw 高清电影,蓝光电影,最新电影,电影天堂,影视帝国,人人影视
点我免费领影视币
回复 支持 反对

使用道具 举报

4#
发表于 2019-2-21 09:08:28 | 只看该作者
感谢楼主无私分享
古哥影视论坛www.bpdm.tw 高清电影,蓝光电影,最新电影,电影天堂,影视帝国,人人影视
点我免费领影视币
回复 支持 反对

使用道具 举报

5#
发表于 2019-2-21 09:32:23 | 只看该作者
感谢楼主分享影片
古哥影视论坛www.bpdm.tw 高清电影,蓝光电影,最新电影,电影天堂,影视帝国,人人影视
点我免费领影视币
回复 支持 反对

使用道具 举报

6#
发表于 2019-2-21 10:20:29 | 只看该作者
感谢楼主发片。
古哥影视论坛www.bpdm.tw 高清电影,蓝光电影,最新电影,电影天堂,影视帝国,人人影视
点我免费领影视币
回复 支持 反对

使用道具 举报

7#
发表于 2019-2-21 10:44:05 | 只看该作者
感谢老大分享!!!
古哥影视论坛www.bpdm.tw 高清电影,蓝光电影,最新电影,电影天堂,影视帝国,人人影视
点我免费领影视币
回复 支持 反对

使用道具 举报

8#
发表于 2019-2-21 19:19:49 | 只看该作者
感谢楼主分享!永远支持古哥影视
古哥影视论坛www.bpdm.tw 高清电影,蓝光电影,最新电影,电影天堂,影视帝国,人人影视
点我免费领影视币
回复 支持 反对

使用道具 举报

9#
发表于 2019-2-21 20:49:01 | 只看该作者
奎迪2下来看看,谢谢分享!
古哥影视论坛www.bpdm.tw 高清电影,蓝光电影,最新电影,电影天堂,影视帝国,人人影视
点我免费领影视币
回复 支持 反对

使用道具 举报

10#
发表于 2019-2-22 20:30:06 | 只看该作者
好片共欣赏
古哥影视论坛www.bpdm.tw 高清电影,蓝光电影,最新电影,电影天堂,影视帝国,人人影视
点我免费领影视币
回复 支持 反对

使用道具 举报

11#
发表于 2019-2-22 20:31:06 | 只看该作者
谢谢楼主,比心了!
古哥影视论坛www.bpdm.tw 高清电影,蓝光电影,最新电影,电影天堂,影视帝国,人人影视
点我免费领影视币
回复 支持 反对

使用道具 举报

12#
发表于 2019-2-22 20:44:26 | 只看该作者
喜欢的电影。必须支持一下。
古哥影视论坛www.bpdm.tw 高清电影,蓝光电影,最新电影,电影天堂,影视帝国,人人影视
点我免费领影视币
回复 支持 反对

使用道具 举报

13#
发表于 2019-2-23 14:03:27 | 只看该作者
又系打打杀杀杀
古哥影视论坛www.bpdm.tw 高清电影,蓝光电影,最新电影,电影天堂,影视帝国,人人影视
点我免费领影视币
回复 支持 反对

使用道具 举报

14#
发表于 2019-2-23 14:04:00 | 只看该作者
又系打打杀杀杀
古哥影视论坛www.bpdm.tw 高清电影,蓝光电影,最新电影,电影天堂,影视帝国,人人影视
点我免费领影视币
回复 支持 反对

使用道具 举报

15#
发表于 2019-2-23 18:41:15 | 只看该作者
这个不错哈,感谢楼主分享了!
古哥影视论坛www.bpdm.tw 高清电影,蓝光电影,最新电影,电影天堂,影视帝国,人人影视
点我免费领影视币
回复 支持 反对

使用道具 举报

16#
发表于 2019-2-23 18:49:53 | 只看该作者
史泰龙是真的老了,伟大的?#24080;?#20154;才!!
古哥影视论坛www.bpdm.tw 高清电影,蓝光电影,最新电影,电影天堂,影视帝国,人人影视
点我免费领影视币
回复 支持 反对

使用道具 举报

17#
发表于 2019-2-23 22:03:43 | 只看该作者
感谢楼主无私分享
古哥影视论坛www.bpdm.tw 高清电影,蓝光电影,最新电影,电影天堂,影视帝国,人人影视
点我免费领影视币
回复 支持 反对

使用道具 举报

18#
发表于 2019-2-24 14:35:37 | 只看该作者
不错的电影
古哥影视论坛www.bpdm.tw 高清电影,蓝光电影,最新电影,电影天堂,影视帝国,人人影视
点我免费领影视币
回复 支持 反对

使用道具 举报

19#
发表于 2019-2-25 09:22:10 | 只看该作者
谢谢楼主分享
古哥影视论坛www.bpdm.tw 高清电影,蓝光电影,最新电影,电影天堂,影视帝国,人人影视
点我免费领影视币
回复 支持 反对

使用道具 举报

20#
发表于 2019-2-25 16:22:50 | 只看该作者
美国烂稻草
古哥影视论坛www.bpdm.tw 高清电影,蓝光电影,最新电影,电影天堂,影视帝国,人人影视
点我免费领影视币
回复 支持 反对

使用道具 举报

您需要登录后才可以回帖 登录 | 注册(分享大片)

本版积分规则

影视帝国免责声明
本站提供网上学习交流和自由讨论使用,所有资源均来自互联网公开渠道,发布和个?#25628;?#35770;并不代表本站立场,本站不负任何责任.
如发现有侵权行为,请与我们联系.我们将立刻从网站上删除,并向所有持版权者致最深歉意.
影视帝国论坛已经安全运行

QQ|小黑屋|?#21482;?#29256;|Archiver|古哥论坛 ( 苏ICP备12074540号 )

GMT+8, 2019-5-24 00:02 , Processed in 0.232587 second(s), 22 queries , Gzip On.

Powered by Discuz! X3.2

© 2001-2013 Comsenz Inc.

快速回复 返回顶部 返回列表
十一选五前三技巧