<acronym id="ucqge"></acronym>
<acronym id="ucqge"></acronym>
<rt id="ucqge"></rt>
<tr id="ucqge"></tr>
<rt id="ucqge"></rt><acronym id="ucqge"><small id="ucqge"></small></acronym>
<rt id="ucqge"><optgroup id="ucqge"></optgroup></rt>
<rt id="ucqge"><optgroup id="ucqge"></optgroup></rt>
<rt id="ucqge"><optgroup id="ucqge"></optgroup></rt>
<rt id="ucqge"><xmp id="ucqge">
<rt id="ucqge"></rt>

古哥论坛

 找回密码
 注册(分享大片)
查看: 781|回复: 13
打印 上一主题 下一主题

[1080P] [奎迪2:英雄再起]Creed.II.2018.1080p.BluRay.x264.DTS-HD.MA.7.1-HDC 15.5GB

[复制链接]
跳转到指定楼层
1#
发表于 2019-2-20 22:43:10 | 只看该作者 回帖奖励 |倒序浏览 |阅读模式
4K天堂

译  名 奎迪英雄再起 / Creed 2 / Creed: Revenge / 克里德2 / 奎迪2 / 洛奇8 / 金牌拳手2 / 金牌拳手父仇(台)
片  名 Creed II
年  代 2018
产  地 美国
类  别 剧情 / 运动
语  言 英语
上映日期 2018-11-21(美国) / 2019-01-04(中国大陆)
IMDb评分 7.5/10 from 41072 users
IMDb链?#21360;?a href="http://www.imdb.com/title/tt6343314" target="_blank">http://www.imdb.com/title/tt6343314
豆瓣评分 7.3/10 from 9206 users
蓝光高清   http://www.4ktt.com
片  长 130分钟
导  演 小斯蒂芬・卡普尔 Steven Caple Jr.
编  剧 乔・霍代里・库克 Cheo Hodari Coker / 瑞恩・库格勒 Ryan Coogler / 萨沙・潘 Sascha Penn / 西尔维斯特・史泰龙 Sylvester Stallone / 朱埃尔・泰勒 Juel Taylor
主  演 迈克尔・B・乔丹 Michael B. Jordan
      西尔维斯特・史泰龙 Sylvester Stallone
      泰莎・汤普森 Tessa Thompson
      杜夫・龙格尔 Dolph Lundgren
      弗罗里安・穆特鲁 Florian Munteanu
      布里吉特・尼尔森 Brigitte Nielsen
      罗素・霍恩?#36129;?Russell Hornsby
      伍德・哈里斯 Wood Harris
      米洛・文?#22530;?#21033;亚 Milo Ventimiglia
      ?#35780;?#35199;亚・拉?#36141;?#24503; Phylicia Rashad
      迈克尔・巴佛 Michael Buffer
      安德烈・?#20540;?Andre Ward
      迈尔斯・哈姆帕斯 Myles Humphus
      伊沃・南迪 Ivo Nandi
      克里斯托弗・曼恩 Christopher Mann



简  介
  ゞ奎迪英雄再起〃讲述拳王奎迪迎战^父仇 ̄对手遭遇惨败跌入人生低谷在教练洛奇和家人的帮助下克服心理障碍重新振作的故事。

  1. Video
  2. ID : 1
  3. Format : AVC
  4. Format/Info : Advanced Video Codec
  5. Format profile : [email protected]
  6. Format settings : CABAC / 5 Ref Frames
  7. Format settings, CABAC : Yes
  8. Format settings, ReFrames : 5 frames
  9. Codec ID : V_MPEG4/ISO/AVC
  10. Duration : 2 h 10 min
  11. Bit rate : 13.3 Mb/s
  12. Width : 1 920 pixels
  13. Height : 804 pixels
  14. Display aspect ratio : 2.40:1
  15. Frame rate mode : Constant
  16. Frame rate : 23.976 (24000/1001) FPS
  17. Color space : YUV
  18. Chroma subsampling : 4:2:0
  19. Bit depth : 8 bits
  20. Scan type : Progressive
  21. Bits/(Pixel*Frame) : 0.359
  22. Stream size : 12.1 GiB (77%)
  23. Title : Creed.II.2018.1080p.BluRay.x264.DTS-HD.MA.7.1-HDC
  24. Writing library : x264 core 148 r2665kMod a01e339
  25. Encoding settings : cabac=1 / ref=5 / deblock=1:-3:-3 / analyse=0x3:0x133 / me=umh / subme=11 / psy=1 / fade_compensate=0.00 / psy_rd=0.85:0.00 / mixed_ref=1 / me_range=48 / chroma_me=1 / trellis=2 / 8x8dct=1 / cqm=0 / deadzone=21,11 / fast_pskip=0 / chroma_qp_offset=-2 / threads=24 / lookahead_threads=4 / sliced_threads=0 / nr=0 / decimate=0 / interlaced=0 / bluray_compat=0 / constrained_intra=0 / fgo=0 / bframes=8 / b_pyramid=2 / b_adapt=2 / b_bias=0 / direct=3 / weightb=1 / open_gop=0 / weightp=2 / keyint=240 / keyint_min=24 / scenecut=40 / intra_refresh=0 / rc=2pass / mbtree=0 / bitrate=13300 / ratetol=1.0 / qcomp=0.70 / qpmin=0 / qpmax=69 / qpstep=4 / cplxblur=20.0 / qblur=0.5 / ip_ratio=1.20 / pb_ratio=1.20 / aq=3:0.80
  26. Default : Yes
  27. Forced : No

  28. Audio
  29. ID : 2
  30. Format : DTS XLL
  31. Format/Info : Digital Theater Systems
  32. Commercial name : DTS-HD Master Audio
  33. Codec ID : A_DTS
  34. Duration : 2 h 10 min
  35. Bit rate mode : Variable
  36. Bit rate : 3 845 kb/s
  37. Channel(s) : 8 channels
  38. Channel layout : C L R LFE Lb Rb Lss Rss
  39. Sampling rate : 48.0 kHz
  40. Frame rate : 93.750 FPS (512 SPF)
  41. Bit depth : 24 bits
  42. Compression mode : Lossless
  43. Stream size : 3.49 GiB (22%)
  44. Title : Creed.II.2018.1080p.BluRay.x264.DTS-HD.MA.7.1-HDC
  45. Language : English
  46. Default : Yes
  47. Forced : No

  48. Text #1
  49. ID : 3
  50. Format : UTF-8
  51. Codec ID : S_TEXT/UTF8
  52. Codec ID/Info : UTF-8 Plain Text
  53. Duration : 2 h 5 min
  54. Bit rate : 48 b/s
  55. Count of elements : 1529
  56. Stream size : 44.5 KiB (0%)
  57. Title : English-SRT
  58. Language : English
  59. Default : Yes
  60. Forced : No

  61. Text #2
  62. ID : 4
  63. Format : UTF-8
  64. Codec ID : S_TEXT/UTF8
  65. Codec ID/Info : UTF-8 Plain Text
  66. Duration : 2 h 9 min
  67. Bit rate : 54 b/s
  68. Count of elements : 1775
  69. Stream size : 51.9 KiB (0%)
  70. Title : English-SDH-SRT
  71. Language : English
  72. Default : No
  73. Forced : No

  74. Text #3
  75. ID : 5
  76. Format : PGS
  77. Muxing mode : zlib
  78. Codec ID : S_HDMV/PGS
  79. Codec ID/Info : Picture based subtitle format used on BDs/HD-DVDs
  80. Duration : 2 h 9 min
  81. Bit rate : 34.5 kb/s
  82. Count of elements : 3557
  83. Stream size : 31.9 MiB (0%)
  84. Title : English-PGS
  85. Language : English
  86. Default : No
  87. Forced : No
复制代码





Creed.II.2018.1080p.BluRay.x264.DTS-HD.MA.7.1-HDC.torrent (78.41 KB, 下载次数: 182)

提示如迅雷下载提示"任务出错"、"因版权无法下载"请更换‐迅雷5/
古哥影视论坛www.bpdm.tw 高清电影,蓝光电影,最新电影,电影天堂,影视帝国,人人影视
2#
发表于 2019-2-21 09:07:28 | 只看该作者
?#34892;?#27004;主无私分享
古哥影视论坛www.bpdm.tw 高清电影,蓝光电影,最新电影,电影天堂,影视帝国,人人影视
回复 支持 反对

使用道具 举报

3#
发表于 2019-2-21 10:15:50 | 只看该作者
?#34892;?#27004;主分享
古哥影视论坛www.bpdm.tw 高清电影,蓝光电影,最新电影,电影天堂,影视帝国,人人影视
回复 支持 反对

使用道具 举报

4#
发表于 2019-2-21 10:21:34 | 只看该作者
下载试试看
古哥影视论坛www.bpdm.tw 高清电影,蓝光电影,最新电影,电影天堂,影视帝国,人人影视
回复 支持 反对

使用道具 举报

5#
发表于 2019-2-21 10:44:51 | 只看该作者
?#34892;?#32769;大分享。。
古哥影视论坛www.bpdm.tw 高清电影,蓝光电影,最新电影,电影天堂,影视帝国,人人影视
回复 支持 反对

使用道具 举报

6#
发表于 2019-2-21 17:37:13 | 只看该作者

?#34892;?#27004;主无私分享
古哥影视论坛www.bpdm.tw 高清电影,蓝光电影,最新电影,电影天堂,影视帝国,人人影视
回复 支持 反对

使用道具 举报

7#
发表于 2019-2-21 19:19:09 | 只看该作者
?#34892;?#27004;主分享永远支持古哥影视
古哥影视论坛www.bpdm.tw 高清电影,蓝光电影,最新电影,电影天堂,影视帝国,人人影视
回复 支持 反对

使用道具 举报

8#
发表于 2019-2-23 15:46:44 | 只看该作者
谢谢楼主分享高清资源
古哥影视论坛www.bpdm.tw 高清电影,蓝光电影,最新电影,电影天堂,影视帝国,人人影视
回复 支持 反对

使用道具 举报

9#
发表于 2019-2-25 07:45:06 | 只看该作者

城市有公交  飙车?#25442;?#39128;
古哥影视论坛www.bpdm.tw 高清电影,蓝光电影,最新电影,电影天堂,影视帝国,人人影视
回复 支持 反对

使用道具 举报

10#
发表于 2019-2-25 09:01:32 | 只看该作者
谢谢楼主分享
古哥影视论坛www.bpdm.tw 高清电影,蓝光电影,最新电影,电影天堂,影视帝国,人人影视
回复 支持 反对

使用道具 举报

11#
发表于 2019-2-25 23:04:08 | 只看该作者
?#19981;?#36825;个系列的电影?#34892;LZ分享了
古哥影视论坛www.bpdm.tw 高清电影,蓝光电影,最新电影,电影天堂,影视帝国,人人影视
回复 支持 反对

使用道具 举报

12#
发表于 2019-3-6 17:36:54 | 只看该作者
谢谢楼主分享
古哥影视论坛www.bpdm.tw 高清电影,蓝光电影,最新电影,电影天堂,影视帝国,人人影视
回复 支持 反对

使用道具 举报

13#
发表于 2019-3-8 11:53:40 | 只看该作者
谢谢楼主分享
古哥影视论坛www.bpdm.tw 高清电影,蓝光电影,最新电影,电影天堂,影视帝国,人人影视
回复 支持 反对

使用道具 举报

14#
发表于 6 天前 | 只看该作者
?#34892;?#27004;主分享
古哥影视论坛www.bpdm.tw 高清电影,蓝光电影,最新电影,电影天堂,影视帝国,人人影视
回复 支持 反对

使用道具 举报

懒得打字嘛点击右侧快捷回复->
您需要登录后才可以回帖 登录 | 注册(分享大片)

本版积分规则

影视帝国免责声明
本站提供网上学习交流和自由讨论使用,所有资源均来自互联网公开渠道,发布和个?#25628;?#35770;并不代表本站立场,本站不负任何责任.
如发现有侵权行为,请与我们联系.我们将立刻从网站上删除并向所有持版权者致最深歉意.
影视帝国论坛已经安全运行

QQ|小黑屋|?#21482;?#29256;|Archiver|古哥论坛 ( 苏ICP备12074540号 )

GMT+8, 2019-3-24 01:37 , Processed in 0.223008 second(s), 21 queries , Gzip On.

Powered by Discuz! X3.2

© 2001-2013 Comsenz Inc.

快速回复 返回顶部 返回列表
噴匯僉励念眉室派